#TITLE:outbreak;
#SUBTITLE:~Ganos original~;
#ARTIST:narve;
#TITLETRANSLIT:;
#SUBTITLETRANSLIT:;
#ARTISTTRANSLIT:;
#CREDIT:;
#BANNER:outbreak.png;
#BACKGROUND:outbreak-bg.png;
#LYRICSPATH:;
#CDTITLE:GanosCD.png;
#MUSIC:outbreak.mp3;
#OFFSET:-0.060;
#SAMPLESTART:35.609;
#SAMPLELENGTH:12.000;
#SELECTABLE:YES;
#DISPLAYBPM:*;
#BPMS:0.000=255.000,474.000=510.000,476.000=1020.000,496.000=127.500;
#STOPS:;
#BGCHANGES:;
// cache tags:
#FIRSTBEAT:15.000;
#LASTBEAT:496.000;
#SONGFILENAME:Songs/Chilean Keyboard Megapack 3/(Ganos) Outbreak/outbreak.sm;
#HASMUSIC:1;
#HASBANNER:1;
#MUSICLENGTH:118.529;
// end cache tags

//---------------dance-single - ----------------
#NOTES:
     dance-single:
     :
     Challenge:
     15:
     1.000,1.000,1.000,1.000,0.194,840.000,591.000,150.000,0.000,216.000:
0000
0000
0000
0000
,
0000
0000
0000
0000
,
0000
0000
0000
0000
,
0000
0000
0000
1100
,
1001
1001
0110
0110
,
1100
1100
1001
1001
,
1010
1010
0101
0101
,
0110
0000
0110
0000
1001
1001
1001
0000
,
1010
1010
0101
0101
,
1100
1100
0110
0110
,
1001
1001
0110
0110
,
0101
0000
0101
0000
0110
0110
0110
0110
,
0110
1000
0110
1000
0011
0100
0011
0100
,
1001
0010
1001
0010
1100
0001
1100
0001
,
0110
1000
0110
1000
0011
0100
0011
0100
,
1001
0010
1001
0010
0101
0101
0101
1000
,
0101
0010
1001
0010
1100
0001
1100
0001
,
0110
1000
0110
1000
0101
0010
0101
0010
,
1100
0001
1100
0001
0110
1000
0110
1000
,
0101
0010
0101
0010
0110
0110
0110
0000
,
0110
0000
0000
0000
,
0000
0000
0000
0000
0000
0000
0000
0000
0000
0000
0000
0000
1000
0001
1000
0001
1000
0000
0001
0000
0000
0001
0000
0000
,
0110
1100
0011
1001
0101
0110
1100
0011
,
1001
0011
1100
0022
0000
0000
0000
0033
,
1100
0110
0011
0101
1010
1001
0110
1010
,
0011
1100
1010
0202
0000
0000
0000
0303
,
1010
0101
1001
1010
0101
0011
1100
0110
,
0011
1010
0101
0220
0000
0000
0000
0330
,
1100
1001
0110
0011
0101
1010
0110
1100
,
0011
0110
1001
2200
0000
0000
0000
3300
,
0011
0110
1010
1001
0110
0011
0101
1010
,
0110
1001
0011
2020
0000
0000
0000
3030
,
1001
0110
0011
1100
0110
0011
1100
1001
,
0110
0011
0110
2200
0000
0000
0000
3300
,
0011
0110
1010
0011
1001
1100
0011
0110
,
1010
0101
0110
2002
0000
0000
0000
3003
,
1010
0110
0011
0110
1001
0101
1010
1100
,
0110
0000
0000
0011
0000
0000
1100
0000
0000
0011
0000
0000
0100
0000
0000
0000
0000
0000
0010
0100
0010
0100
0010
0000
,
1201
1001
1001
1001
1001
1001
1001
1001
,
1001
1001
1001
1001
1001
1001
1001
1001
,
1001
1001
1001
1001
1001
1001
1001
1001
,
1001
0000
1000
0001
1000
0000
1001
0000
1001
0000
1001
0000
1000
0001
1000
0000
,
1001
1001
1001
1001
1001
1001
1001
1001
,
1001
1001
1001
1001
1001
1001
1001
1001
,
1001
1001
1001
1001
1001
1001
1001
1001
,
1001
0000
1000
0001
1000
0000
1301
0000
0010
0000
0000
0000
0100
0000
0000
0000
,
2110
0110
0110
0110
0110
0110
0110
0110
,
0110
0110
0110
0110
0110
0110
0110
0110
,
0110
0110
0110
0110
0110
0110
0110
0110
,
0110
0000
0010
0100
0010
0000
0110
0000
0110
0000
0110
0000
0010
0100
0010
0000
,
0110
0110
0110
0110
0110
0110
0110
0110
,
0110
0110
0110
0110
0110
0110
0110
0110
,
0110
0110
0110
0110
0110
0110
0110
0110
,
0110
0000
0010
0100
0010
0000
0110
0000
0010
0100
0010
0100
0010
0100
3010
0100
,
1010
1010
1010
1010
,
1010
1010
1010
1010
,
1010
1010
1010
1010
,
1010
0000
1010
0000
1010
1010
1010
0000
,
1010
0000
0000
0000
0000
0000
0000
0000
0100
0000
0000
0000
0000
0000
0000
0000
1001
0000
0000
0000
0000
0000
0000
0000
0010
0000
0000
0000
0000
0000
0000
0000
0202
0303
0000
0000
0000
0000
0000
0000
1000
0000
0000
0000
0000
0000
0000
0000
0011
0000
0000
0000
0000
0000
0000
0000
0100
0000
0000
0000
0000
0000
0000
0000
,
2002
3003
0000
0000
0000
0000
0000
0000
0010
0000
0000
0000
0000
0000
0000
0000
0101
0000
0000
0000
0000
0000
0000
0000
1000
0000
0000
0000
0000
0000
0000
0000
0022
0033
0000
0000
0000
0000
0000
0000
0100
0000
0000
0000
0000
0000
0000
0000
1010
0000
0000
0000
0000
0000
0000
0000
0001
0000
0000
0000
1000
0000
0000
0000
,
0110
0000
0000
0000
0000
0000
0000
0000
1000
0000
0000
0000
0000
0000
0000
0000
0101
0000
0000
0000
0000
0000
0000
0000
0010
0000
0000
0000
0000
0000
0000
0000
2200
3300
0000
0000
0000
0000
0000
0000
0001
0000
0000
0000
0000
0000
0000
0000
1010
0000
0000
0000
0000
0000
0000
0000
0100
0000
0000
0000
0000
0000
0000
0000
,
2020
3030
0000
0000
0000
0000
0000
0000
0001
0000
0000
0000
0000
0000
0000
0000
1100
0000
0000
0000
0000
0000
0000
0000
0010
0000
0000
0000
0000
0000
0000
0000
0202
0303
0000
0000
0000
0000
0000
0000
0101
0000
0000
0000
0000
0000
0000
0000
0101
0000
0000
0000
0000
0000
0000
0000
1000
0000
0000
0000
0001
0000
0000
0000
,
0110
0000
0000
0000
0000
0000
0000
0000
0001
0000
0000
0000
0000
0000
0000
0000
1100
0000
0000
0000
0000
0000
0000
0000
0010
0000
0000
0000
0000
0000
0000
0000
0202
0303
0000
0000
0000
0000
0000
0000
0010
0000
0000
0000
0000
0000
0000
0000
1001
0000
0000
0000
0000
0000
0000
0000
0100
0000
0000
0000
0000
0000
0000
0000
,
0022
0033
0000
0000
0000
0000
0000
0000
1000
0000
0000
0000
0000
0000
0000
0000
0011
0000
0000
0000
0000
0000
0000
0000
0100
0000
0000
0000
0000
0000
0000
0000
2020
3030
0000
0000
0000
0000
0000
0000
0001
0000
0000
0000
0000
0000
0000
0000
0110
0000
0000
0000
0000
0000
0000
0000
1000
0000
0000
0000
0010
0000
0000
0000
,
0101
0000
0000
0000
0000
0000
0000
0000
0010
0000
0000
0000
0000
0000
0000
0000
1001
0000
0000
0000
0000
0000
0000
0000
0010
0000
0000
0000
0000
0000
0000
0000
0202
0303
0000
0000
0000
0000
0000
0000
1000
0000
0000
0000
0000
0000
0000
0000
0110
0000
0000
0000
0000
0000
0000
0000
0001
0000
0000
0000
0000
0000
0000
0000
,
2020
3030
0000
0000
0000
0000
0000
0000
0100
0000
0000
0000
0000
0000
0000
0000
0011
0000
0000
0000
0000
0000
0000
0000
0100
0000
0000
0000
0000
0000
0000
0000
2002
3003
0000
0000
0000
0000
0000
0000
1001
0000
0000
0000
0000
0000
0000
0000
1001
0000
0000
0000
0000
0000
0000
0000
1001
0000
0000
0000
0000
0000
0000
0000
,
1002
0003
0000
0000
0000
0000
0000
0000
2000
3000
0000
0000
0000
0000
0000
0000
0002
0003
0000
0000
0000
0000
0000
0000
0000
0000
0000
0000
0000
0000
0000
0000
2000
3000
0000
0000
0000
0000
0000
0000
0002
0003
0000
0000
0000
0000
0000
0000
0000
0000
0000
0000
0000
0000
0000
0000
2000
3000
0000
0000
0000
0000
0000
0000
,
0002
0003
0000
0000
0000
0000
0000
0000
0000
0000
0000
0000
0000
0000
0000
0000
0002
0003
0000
0000
0000
0000
0000
0000
2000
3000
0000
0000
0000
0000
0000
0000
0000
0000
0000
0000
0000
0000
0000
0000
0000
0000
0000
0000
0000
0000
0000
0000
2000
3000
0000
0000
0000
0000
0000
0000
0000
0000
0000
0000
0000
0000
0000
0000
,
0002
0003
0000
0000
0000
0000
0000
0000
2000
3000
0000
0000
0000
0000
0000
0000
0020
0030
0000
0000
0000
0000
0000
0000
0200
0300
0000
0000
0000
0000
0000
0000
0002
0003
0000
0000
0000
0000
0000
0000
0020
0030
0000
0000
0000
0000
0000
0000
0200
0300
0000
0000
0000
0000
0000
0000
2000
3000
0000
0000
0000
0000
0000
0000
,
0002
0003
0000
0000
0000
0000
0000
0000
0000
0000
0000
0000
0000
0000
0000
0000
0200
0300
0000
0000
0000
0000
0000
0000
0020
0030
0000
0000
0000
0000
0000
0000
0000
0000
0000
0000
0000
0000
0000
0000
0000
0000
0000
0000
0000
0000
0000
0000
2000
3000
0000
0000
0000
0000
0000
0000
0100
0000
0000
0000
0000
0000
0000
0000
,
0021
0030
0000
0000
0000
0000
0000
0000
0200
0300
0000
0000
0000
0000
0000
0000
2010
3000
0000
0000
0000
0000
0000
0000
0001
0000
0000
0000
0000
0000
0000
0000
0120
0030
0000
0000
0000
0000
0000
0000
2000
3000
0000
0000
0000
0000
0000
0000
0011
0000
0000
0000
0000
0000
0000
0000
0200
0300
0000
0000
0000
0000
0000
0000
,
1020
0030
0000
0000
0000
0000
0000
0000
0001
0000
0000
0000
0000
0000
0000
0000
0120
0030
0000
0000
0000
0000
0000
0000
2000
3000
0000
0000
0000
0000
0000
0000
0011
0000
0000
0000
0000
0000
0000
0000
0100
0000
0000
0000
0000
0000
0000
0000
2010
3000
0000
0000
0000
0000
0000
0000
0001
0000
0000
0000
0000
0000
0000
0000
,
0210
0300
0000
0000
0000
0000
0000
0000
2000
3000
0000
0000
0000
0000
0000
0000
0021
0030
0000
0000
0000
0000
0000
0000
0100
0000
0000
0000
0000
0000
0000
0000
2001
3000
0000
0000
0000
0000
0000
0000
0020
0030
0000
0000
0000
0000
0000
0000
1100
0000
0000
0000
0000
0000
0000
0000
0002
0003
0000
0000
0000
0000
0000
0000
,
0120
0030
0000
0000
0000
0000
0000
0000
1000
0000
0000
0000
0000
0000
0000
0000
0021
0030
0000
0000
0000
0000
0000
0000
0200
0300
0000
0000
0000
0000
0000
0000
1001
0000
0000
0000
0000
0000
0000
0000
1001
0000
0000
0000
0000
0000
0000
0000
2001
3000
0000
0000
0000
0000
0000
0000
0010
0000
0000
0000
0000
0000
0000
0000
,
1002
0003
0000
0000
0000
0000
0000
0000
0020
0030
0000
0000
0000
0000
0000
0000
0201
0300
0000
0000
0000
0000
0000
0000
1000
0000
0000
0000
0000
0000
0000
0000
0021
0030
0000
0000
0000
0000
0000
0000
0200
0300
0000
0000
0000
0000
0000
0000
1010
0000
0000
0000
0000
0000
0000
0000
0002
0003
0000
0000
0000
0000
0000
0000
,
0120
0030
0000
0000
0000
0000
0000
0000
1000
0000
0000
0000
0000
0000
0000
0000
0012
0003
0000
0000
0000
0000
0000
0000
0200
0300
0000
0000
0000
0000
0000
0000
1010
0000
0000
0000
0000
0000
0000
0000
0001
0000
0000
0000
0000
0000
0000
0000
0120
0030
0000
0000
0000
0000
0000
0000
1000
0000
0000
0000
0000
0000
0000
0000
,
0102
0003
0000
0000
0000
0000
0000
0000
0020
0030
0000
0000
0000
0000
0000
0000
1200
0300
0000
0000
0000
0000
0000
0000
0001
0000
0000
0000
0000
0000
0000
0000
0120
0030
0000
0000
0000
0000
0000
0000
2000
3000
0000
0000
0000
0000
0000
0000
0011
0000
0000
0000
0000
0000
0000
0000
0200
0300
0000
0000
0000
0000
0000
0000
,
1002
0003
0000
0000
0000
0000
0000
0000
0010
0000
0000
0000
0000
0000
0000
0000
1200
0300
0000
0000
0000
0000
0000
0000
0002
0003
0000
0000
0000
0000
0000
0000
1010
0000
0000
0000
0000
0000
0000
0000
1010
0000
0000
0000
0000
0000
0000
0000
2010
3000
0000
0000
0000
0000
0000
0000
1010
0000
0000
0000
0000
0000
0000
0000
,
2010
3000
0000
0000
0000
0000
0000
0000
0200
0300
0000
0000
0000
0000
0000
0000
0021
0030
0000
0000
0000
0000
0000
0000
1000
0000
0000
0000
0000
0000
0000
0000
0120
0030
0000
0000
0000
0000
0000
0000
0002
0003
0000
0000
0000
0000
0000
0000
1010
0000
0000
0000
0000
0000
0000
0000
0200
0300
0000
0000
0000
0000
0000
0000
,
0021
0030
0000
0000
0000
0000
0000
0000
1000
0000
0000
0000
0000
0000
0000
0000
0201
0300
0000
0000
0000
0000
0000
0000
0020
0030
0000
0000
0000
0000
0000
0000
1100
0000
0000
0000
0000
0000
0000
0000
0010
0000
0000
0000
0000
0000
0000
0000
0102
0003
0000
0000
0000
0000
0000
0000
1000
0000
0000
0000
0000
0000
0000
0000
,
0021
0030
0000
0000
0000
0000
0000
0000
0200
0300
0000
0000
0000
0000
0000
0000
2001
3000
0000
0000
0000
0000
0000
0000
0010
0000
0000
0000
0000
0000
0000
0000
0201
0300
0000
0000
0000
0000
0000
0000
2000
3000
0000
0000
0000
0000
0000
0000
0110
0000
0000
0000
0000
0000
0000
0000
0002
0003
0000
0000
0000
0000
0000
0000
,
1200
0300
0000
0000
0000
0000
0000
0000
0010
0000
0000
0000
0000
0000
0000
0000
0201
0300
0000
0000
0000
0000
0000
0000
2000
3000
0000
0000
0000
0000
0000
0000
0110
0000
0000
0000
0000
0000
0000
0000
0110
0000
0000
0000
0000
0000
0000
0000
0120
0030
0000
0000
0000
0000
0000
0000
1000
0000
0000
0000
0000
0000
0000
0000
,
0120
0030
0000
0000
0000
0000
0000
0000
0002
0003
0000
0000
0000
0000
0000
0000
1200
0300
0000
0000
0000
0000
0000
0000
0010
0000
0000
0000
0000
0000
0000
0000
0201
0300
0000
0000
0000
0000
0000
0000
2000
3000
0000
0000
0000
0000
0000
0000
0110
0000
0000
0000
0000
0000
0000
0000
0002
0003
0000
0000
0000
0000
0000
0000
,
2010
3000
0000
0000
0000
0000
0000
0000
0100
0000
0000
0000
0000
0000
0000
0000
0021
0030
0000
0000
0000
0000
0000
0000
2000
3000
0000
0000
0000
0000
0000
0000
0101
0000
0000
0000
0000
0000
0000
0000
0010
0000
0000
0000
0000
0000
0000
0000
1200
0300
0000
0000
0000
0000
0000
0000
0000
0000
0000
0000
0000
0000
0000
0000
,
1000
0001
1000
0001
1000
0001
1000
0001
1000
0001
1000
0001
1000
0001
1000
0001
,
1000
0001
1000
0001
1000
0001
1000
0001
1000
0001
1000
0001
1000
0001
1000
0001
,
2000
0000
3000
0000
,
0000
0000
0000
0000
0000
0000
0000
0000
0000
0000
0000
0000
1000
0001
1000
0001
1000
0000
0001
0000
0000
0001
0000
0000
,
1100
0110
0011
1010
0110
1001
0011
1010
,
0101
0110
1001
0220
0000
0000
0000
0330
,
0101
0110
1001
1100
0011
1001
0110
1010
,
0101
1100
0110
0022
0000
0000
0000
0033
,
0110
1100
0011
0110
1010
0101
0011
1001
,
0110
1010
0110
2200
0000
0000
0000
3300
,
1010
0101
0110
1010
1001
0011
1100
0101
,
0110
1001
1100
2002
0000
0000
0000
3003
,
0101
0110
1010
0101
1100
1001
0110
0011
,
1010
0110
1001
0202
0000
0000
0000
0303
,
1001
0110
0011
1100
0110
0011
1100
1001
,
0110
0011
0110
2200
0000
0000
0000
3300
,
1100
0110
0011
1010
0110
1001
0011
1010
,
0101
0110
1001
2020
0000
0000
0000
3030
,
1010
0101
0110
1010
1001
0011
1100
0101
,
0110
0000
0000
1001
0000
0000
1100
0000
0000
0000
0000
0000
0010
0000
0000
0000
0000
0000
0001
0010
0001
0010
0001
0000
,
2011
0011
0011
0011
0011
0011
0011
0011
,
0011
0011
0011
0011
0011
0011
0011
0011
,
0011
0011
0011
0011
0011
0011
0011
0011
,
0011
0000
0001
0010
0001
0000
0011
0000
0011
0000
0011
0000
0001
0010
0001
0000
,
0011
0011
0011
0011
0011
0011
0011
0011
,
0011
0011
0011
0011
0011
0011
0011
0011
,
0011
0011
0011
0011
0011
0011
0011
0011
,
0011
0000
0001
0010
0001
0000
3011
0000
0100
0000
0000
0000
0100
0000
0000
0000
,
1102
1100
1100
1100
1100
1100
1100
1100
,
1100
1100
1100
1100
1100
1100
1100
1100
,
1100
1100
1100
1100
1100
1100
1100
1100
,
1100
0000
1000
0100
1000
0000
1100
0000
1100
0000
1100
0000
1000
0100
1000
0000
,
1100
1100
1100
1100
1100
1100
1100
1100
,
1100
1100
1100
1100
1100
1100
1100
1100
,
1100
1100
1100
1100
1100
0000
1100
0000
,
1100
0000
1100
0000
,
1100
0000
1000
0100
,
1000
0000
1100
0000
,
1000
0100
1000
0100
,
1000
0100
1000
0200
,
0303
0000
0000
0000
;
